Черная Месса/ Black Mass Торрент

Общее Уникальный идентификатор : 175411159413260981460547159852974285857 (0x83F6F5E002820154985CC6212EB32421) Полное имя : M:\Rips3\Black Mass\Black Anime Studio Pro Скачать Русскую Версию 9.5. Mass. 2015. BDRip-AVC. Dub 2 Скачать Друг Вокруг На Телефон Андроид. 91Gb. stalkerok. new-team. mkv Формат : Matroska Версия формата : Version 4 / Version 2 Размер файла : 2,85 Гбайт Продолжительность : 2 ч 2 м Леново 10040 Драйвера. Общий поток : 3333 Кбит/сек Название фильма : Black Mass (2015) (New-Team) (Rip by Stalker oK) Дата кодирования : UTC 2016-01-21 07:34:02 Программа кодирования : mkvmerge v8. 6. 1 ('Flying') 64bit Библиотека кодирования : libebml v1. 3 3 + libmatroska v1 Метод Торрент. 4. 4 Видео Идентификатор : 1 Формат : AVC Формат/Информация : Advanced Video Codec Профиль формата : High@L4. 1 Параметр CABAC формата : Да Параметр ReFrames формата : 14 кадров Идентификатор кодека : V_MPEG4/ISO/AVC Продолжительность : 2 ч. 2 м Битрейт : 2503 Кбит/сек Ширина : 1152 пикселя Высота : 480 пикселей Соотношение сторон : 2,40:1 Режим частоты кадров : Постоянный Частота кадров : 23,976 (24000/1001) кадра/сек Цветовое пространство : YUV Субдискретизация насыщенности : 4:2:0 Битовая глубина : 8 бит Тип развёртки : Прогрессивная Бит/(Пиксели*Кадры) : 0 Скачатьсериал Саранча 2014 Онлайн. 189 Размер потока : 2,14 Гбайт (75%) Заголовок : Black Mass (2015) (New-Team) (Rip by Stalker oK) Библиотека кодирования : x264 core 148 r2665kMod a01e339 Настройки программы : cabac=1 / ref=14 / deblock=1:-3:-3 / analyse=0x3:0x133 / me=umh / subme=11 / psy=1 / fade_compensate=0. 00 / psy_rd=1. 00:0. 10 / mixed_ref=1 / me_range=48 / chroma_me=1 / trellis=2 / 8x8dct=1 / cqm=0 / deadzone=21,11 / fast_pskip=0 / chroma_qp_offset=-3 / threads=12 / lookahead_threads=3 / sliced_threads=0 / nr=0 / decimate=0 / interlaced=0 / bluray_compat=0 / constrained_intra=0 / fgo=0 / bframes=15 / b_pyramid=2 / b_adapt=2 / b_bias=0 / direct=3 / weightb=1 / open_gop=0 / weightp=2 / keyint=240 / keyint_min=23 / scenecut=40 / intra_refresh=0 / rc_lookahead=60 / rc=2pass / mbtree=0 / bitrate=2503 / ratetol=1 0 / qcomp=0 . 70 / qpmin=0 / qpmax=69 / qpstep=4 / cplxblur=20. 0 / qblur=0. 5 / vbv_maxrate=50000 / vbv_bufsize=62500 / nal_hrd=none / filler=0 / ip_ratio=1. 40 / pb_ratio=1 30 / aq=3:0 . 80 Default : Да Forced : Нет Аудио #1 Идентификатор : 2 Формат : AC-3 Формат/Информация : Audio Coding 3 Расширение режима : CM (complete main) Параметр Endianness формата : Big Идентификатор кодека : A_AC3 Продолжительность : 2 ч. 2 м. Вид битрейта : Постоянный Битрейт : 384 Кбит/сек Каналы : 6 каналов Расположение каналов : Front: L C R, Side: L R, LFE Частота : 48,0 КГц Частота кадров : 31,250 кадров/сек (1536 spf) Метод сжатия : С потерями Размер потока : 337 Мбайт (12%) Язык : Russian Default : Да Forced : Нет Аудио #2 Идентификатор : 3 Формат : AC-3 Формат/Информация : Audio Coding 3 Расширение режима : CM (complete main) Параметр Endianness формата : Big Идентификатор кодека : A_AC3 Продолжительность : 2 ч. 2 м Вид битрейта : Постоянный Битрейт : 448 Кбит/сек Каналы : 6 каналов Расположение каналов : Front: L C R, Side: L R, LFE Частота : 48,0 КГц Частота кадров : 31,250 кадров/сек (1536 spf) Метод сжатия : С потерями Размер потока : 393 Мбайт (13%) Язык : English Default : Нет Forced : Нет Текст #1 Идентификатор : 4 Формат : UTF-8 Идентификатор кодека : S_TEXT/UTF8 Идентификатор кодека/Информация : UTF-8 Plain Text Продолжительность : 1 ч . 57 м. Битрейт : 2 бит/сек Count of elements : 53 Размер потока : 2,51 Кбайт (0%) Заголовок : Forced Язык : Russian Default : Да Forced : Да Текст #2 Идентификатор : 5 Формат : UTF-8 Идентификатор кодека : S_TEXT/UTF8 Идентификатор кодека/Информация : UTF-8 Plain Text Продолжительность : 1 ч. 57 м. Битрейт : 98 бит/сек Count of elements : 1788 Размер потока : 85,0 Кбайт (0%) Заголовок : Full-length Язык : Russian Default : Нет Forced : Нет Текст #3 Идентификатор : 6 Формат : UTF-8 Идентификатор кодека : S_TEXT/UTF8 Идентификатор кодека/Информация : UTF-8 Plain Text Продолжительность : 1 ч 54 м . Битрейт : 3 бит/сек Count of elements : 51 Размер потока : 3,23 Кбайт (0%) Заголовок : Forced Язык : Ukrainian Default : Нет Forced : Нет Текст #4 Идентификатор : 7 Формат : UTF-8 Идентификатор кодека : S_TEXT/UTF8 Идентификатор кодека/Информация : UTF-8 Plain Text Продолжительность : 1 ч. 53 м. Битрейт : 77 бит/сек Count of elements : 1987 Размер потока : 64,9 Кбайт (0%) Заголовок : English Язык : English Default : Нет Forced : Нет Текст #5 Идентификатор : 8 Формат : UTF-8 Идентификатор кодека : S_TEXT/UTF8 Идентификатор кодека/Информация : UTF-8 Plain Text Продолжительность : 1 ч. 53 м Битрейт : 78 бит/сек Count of elements : 2135 Размер потока : 65,2 Кбайт (0%) Заголовок : SDH Язык : English Default : Нет Forced : Нет Текст #6 Идентификатор : 9 Формат : UTF-8 Идентификатор кодека : S_TEXT/UTF8 Идентификатор кодека/Информация : UTF-8 Plain Text Продолжительность : 1 ч . 53 м. Битрейт : 85 бит/сек Count of elements : 2135 Размер потока : 71,4 Кбайт (0%) Заголовок : SDH Colored Язык : English Default : Нет Forced : Нет Меню 00:00:00. 000 : en:Chapter 01 00:09:44. 250 : en:Chapter 02 00:18:27 481 : en:Chapter 03 00:31:21 . 796 : en:Chapter 04 00:41:49. 340 : en:Chapter 05 00:51:58. 740 : en:Chapter 06 00:59:19. 847 : en:Chapter 07 01:09:17 653 : en:Chapter 08 01:19:53 . 914 : en:Chapter 09 01:28:47. 530 : en:Chapter 10 01:39:44. 103 : en:Chapter 11 01:52:18. 398 : en:Chapter 12 01:55:14 282 : en:Chapter 13

Нашлось

17545 статей по запросу «черная месса/ Black Mass торрент»

черная месса/ Black Mass торрент
05.05.2016 04:45:56

Черная месса / Black Mass (2015) Скачать ...

Описание фильма Черная месса | Black Mass ... впечатлениями о скаченном через торрент ...

черная месса/ Black Mass торрент
07.05.2016 03:45:56

Торрент Черная месса / Black Mass (2015 ...

Картина расскажет об Уайти Булджере, знаменитом бостонском гангстере, который 16 лет ...

черная месса/ Black Mass торрент
05.05.2016 04:45:56

Скачать фильм Черная месса / Black ...

В основу фильма положен бестселлер «Черная месса: правдивая история о дьявольском союзе ...

черная месса/ Black Mass торрент
06.05.2016 03:45:56

Скачать фильм Черная месса / Black ...

Криминал » Скачать торрент Черная месса / Black Mass (Скотт Купер) [2015, драма, криминал, биография ...

черная месса/ Black Mass торрент
02.05.2016 05:45:56

Черная месса / Black Mass (2015) Скачать ...

Скачать торрент: Черная месса / Black Mass ... Скачать торрент: Черная месса / Black Mass BDRip 1080p

черная месса/ Black Mass торрент
29.04.2016 05:45:56

Торрент Черная Месса / Black Mass (2015 ...

Название: Черная Месса В оригинале: Black Mass Год: 2015 Жанр: Драма, криминал, биография Режиссёр ...

черная месса/ Black Mass торрент
02.05.2016 03:45:56

Черная месса (2015) скачать торрент

Название: Черная месса Оригинальное название: Black Mass Год выхода: 2015 Жанр: драма, криминал ...

черная месса/ Black Mass торрент
01.05.2016 03:45:56

Скачать Черная месса / Black Mass ...

Поглощенные раздачи » Скачать торрент Черная месса / Black Mass (Скотт Купер) [2015, драма ...

черная месса/ Black Mass торрент
05.05.2016 04:45:56

Фильм Черная Месса / Black Mass (2015 ...

Фильм Черная Месса / Black Mass (2015) скачать торрент фильм бесплатно в хорошем качестве hd. Черная ...

черная месса/ Black Mass торрент
03.05.2016 03:45:56

Черная месса / Black Mass (2015) 720p BDRip ...

Черная месса / Black Mass (2015) ... чтобы бесплатно скачать торрент Черная месса / Black Mass (2015) 720p BDRip:

Адобе Ридер Скачать Бесплатно Для Виндовс 7 Скачать Сериал Нтв Тесты Химия 11 Класс Габриелян Скачать Бесплатно Torrent Наследие 2015 Торрент Net Framework 2.0 Скачать Симс 3 5 В 1 Скачать Торрент Не Устанавливаются Драйвера Nvidia Windows Xp Скачать Spider Man Amazing 2 Прошивка Айфон 5 S Скачать Скачать Программу Для Драйверов Бесплатно На Русском Скачать Песняmake Me Make Mu Скачать Кс 1.6 Скачать Сериал Метод 5 6 Серия Торрент Скачать Counter-Strike 1.6 Скачать Приложения Игровые Автоматы Осенний Клипарт Скачать Бесплатно Бегущий В Лабиринте Испытание Огнем Webrip 700 Мб Скачать Openvpn Gui 2.3.6 Скачать Видио Приколы Скачать Игры На Андроид Торрент Скачать Cubase 5 Windows 7 Мастер Визиток Портабле Скачать Бесплатно Скачать Драйвер Бустер Рус Drunk Fighters Скачать Скачать Песню Голубые Береты Синева Dead Or Alive 5 Last Round Патч 1.04 Скачать Скачать Книгу Монстр Франсетт Фел Сериал Метод Скачать Торрент Скачать Карту Города Махачкалы Скачать Фильм Бесплатно В Хорошем Качестве Новинки 2014 Драйвер Для Usb Устройство Mtp Mediacreationtool.exe Скачать С Официального Сайта Оксана Почепа Мелодрама Скачать Бесплатно Фаст Торрент Asus K750Jb Драйвера Windows 8 Скачать Njhhtyn Музофон Скачать Бесплатно Без Регистрации Wav To Mp3 Скачать Программа Для Фоторобота Скачать Бесплатно